Atsız Karaduman | Josh Brolin | 1x19 Falsa Identidad

Ugrás a tartalomhoz

Fotó

Predator - A ragadozó /The Predator/2018.CAM.HUN mozis kép és hangdata.hu / Akció, Horror / CAM / HUN /

- - - - -

  • Hozzászólás írásához be kell jelentkezni!
Még nem érkezett válasz erre a témára

#1
szilvike19800717

szilvike19800717

    Anya megengedte

  • Moderátor
  • PipaPipaPipaPipaPipaPipa
  • 1243
  • 939 Hozzászólás
  • 4423 köszönet
  • Offline
  • Neme:Férfi

75810.jpg


film_c10.png
 Predator - A ragadozó
 /The Predator/
amerikai akciófilm, kalandfilm, horror, 107 perc, 2018
stabli10.png


    rendező:
    Shane Black
    forgatókönyvíró:
    Shane Black Fred Dekker
    operatőr:
    Larry Fong
    vágó:
    Harry B. Miller III
    zene:
    Henry Jackman
    producer:
    John Davis Lawrence Gordon Joel Silver
    társproducer:
    Blondel Aidoo
    executive producer:
    Bill Bannerman
szerep10.png
Casey Bracket
Olivia Munn
Quinn McKenna
Boyd Holbrook
Williams
Trevante Rhodes
Coyle
Keegan Michael Key
Lynch
Alfie Allen
Rory McKenna
Jacob Tremblay
Emily
Yvonne Strahovski
Kormányügynök
Sterling K. Brown
Lochlyn Munro
Baxley
Thomas Jane
infa11.png
Format                         : MPEG-4
Format profile                 : Base Media
Codec ID                       : isom (isom/iso2/avc1/mp41)
File size                      : 407 MiB
Duration                       : 1 h 36 min
Overall bit rate               : 586 kb/s
Writing application            : Lavf57.83.100

Video
ID                             : 1
Format                         : AVC
Format/Info                    : Advanced Video Codec
Format profile                 : [email protected]
Format settings, CABAC         : Yes
Format settings, ReFrames      : 5 frames
Codec ID                       : avc1
Codec ID/Info                  : Advanced Video Coding
Duration                       : 1 h 36 min
Bit rate                       : 512 kb/s
Width                          : 720 pixels
Height                         : 300 pixels
Display aspect ratio           : 2.40:1
Frame rate mode                : Constant
Frame rate                     : 29.970 (30000/1001) FPS
Color space                    : YUV
Chroma subsampling             : 4:2:0
Bit depth                      : 8 bits
Scan type                      : Progressive
Bits/(Pixel*Frame)             : 0.079
Stream size                    : 357 MiB (88%)
Writing library                : x264 core 148 r2795 aaa9aa8

Audio
ID                             : 2
Format                         : AAC
Format/Info                    : Advanced Audio Codec
Format profile                 : LC
Codec ID                       : 40
Duration                       : 1 h 36 min
Duration_LastFrame             : -3 ms
Bit rate mode                  : Constant
Bit rate                       : 64.4 kb/s
Channel(s)                     : 2 channels
Channel positions              : Front: L R
Sampling rate                  : 48.0 kHz
Frame rate                     : 46.875 FPS (1024 spf)
Compression mode               : Lossy
Stream size                    : 44.7 MiB (11%)
Title                          : 0
Default                        : Yes
Alternate group                : 1
film_l10.png
Shane Black friss vért fecskendez a Predator-sorozatba ezzel a kirobbanó új résszel, amelyben a vadászat a világűr távoli zugaitól a külvárosi utcákig terjed. Az univerzum legveszedelmesebb ragadozói más fajok DNS-ét használva genetikailag módosították magukat, így most erősebbek, okosabbak és halálosabbak, mint bármikor. Mikor egy kisfiú tudtán kívül a Földre vonzza őket, csupán egy exkatonákból álló szedett-vedett csapat és egy morózus technikatanárnő állhat az emberiség pusztulásának útjába.

kyypek10.gif

111.jpg

211.jpg

311.jpg

letalt10.jpg


Kérlek Jelentkezz be vagy Regisztrálj hogy lásd a rejtett tartalmat.

 
  • 2

Megköszönte 9 Felhasználó:
ariel76 , Szaszazombor , buga_jakab , kellyatti , stavros81 , Gaspi0118 , pocok24 , ftomas , Fular



0 felhasználó olvassa ezt a témát.

0 felhasználó, 0 vendég, 0 anonim felhasználó